Till glädje (The Joy) (1950) -Ingmar Bergman

forum resmi

http://www.imdb.com/title/tt0043048/

Country: Sweden
Language: Swedish

Stig, a visiting soloist to a small Swedish orchestra, marries fellow musician Martha, but the inner torment and sense of failure in Stig leads to an extra-marital affair and a tragic ending.

http://i47.tinypic.com/21kb8g4.png
 General
Complete name                    : C:\eMule0.48a\Incoming\till.glädje.1950.dvdrip.xvid.ac3-rulle.avi
Format                           : AVI
Format/Info                      : Audio Video Interleave
File size                        : 1.45 GiB
Duration                         : 1h 39mn
Overall bit rate                 : 2 095 Kbps
Writing application              : VirtualDubMod 1.5.10.2 (build 2540/release)
Writing library                  : VirtualDubMod build 2540/release

Video
ID                               : 0
Format                           : MPEG-4 Visual
Format profile                   : Advanced Simple@L5
Format settings, BVOP            : Yes
Format settings, QPel            : No
Format settings, GMC             : No warppoints
Format settings, Matrix          : Default (MPEG)
Codec ID                         : XVID
Codec ID/Hint                    : XviD
Duration                         : 1h 39mn
Bit rate                         : 1 896 Kbps
Width                            : 640 pixels
Height                           : 480 pixels
Display aspect ratio             : 4:3
Frame rate                       : 23.976 fps
Resolution                       : 8 bits
Colorimetry                      : 4:2:0
Scan type                        : Progressive
Bits/(Pixel*Frame)               : 0.257
Stream size                      : 1.31 GiB (91%)
Writing library                  : XviD 1.1.2 (UTC 2006-11-01)

Audio
ID                               : 1
Format                           : AC-3
Format/Info                      : Audio Coding 3
Codec ID                         : 2000
Duration                         : 1h 39mn
Bit rate mode                    : Constant
Bit rate                         : 192 Kbps
Channel(s)                       : 1 channel
Channel positions                : C
Sampling rate                    : 48.0 KHz
Stream size                      : 136 MiB (9%)
Alignment                        : Split accross interleaves
Interleave, duration             : 96 ms (2.30 video frames)
Interleave, preload duration     : 96 ms


http://www.filesonic.com/file/944250691/till.gl_dje.1950.dvdrip.xvid.ac3-rulle_midgard.part1.rar
http://www.filesonic.com/file/944245571/till.gl_dje.1950.dvdrip.xvid.ac3-rulle_midgard.part2.rar
http://www.filesonic.com/file/944250751/till.gl_dje.1950.dvdrip.xvid.ac3-rulle_midgard.part3.rar
http://www.filesonic.com/file/944245531/till.gl_dje.1950.dvdrip.xvid.ac3-rulle_midgard.part4.rar
http://www.filesonic.com/file/944250741/till.gl_dje.1950.dvdrip.xvid.ac3-rulle_midgard.part5.rar
http://www.filesonic.com/file/944245551/till.gl_dje.1950.dvdrip.xvid.ac3-rulle_midgard.part6.rar
http://www.filesonic.com/file/944250771/till.gl_dje.1950.dvdrip.xvid.ac3-rulle_midgard.part7.rar
http://www.filesonic.com/file/944250701/till.gl_dje.1950.dvdrip.xvid.ac3-rulle_midgard.part8.rar

0 comments:

Post a Comment

Disclaimer

foreignmoviesddl.org does not host any of the files mentioned on this blog or on its own servers. foreignmoviesddl.org only points out to various links on the Internet that already exist and are uploaded by other websites or users there. To clarify more please feel free to contact the webmasters anytime or read more Here.