Somos lo que hay (We Are What We Are) (2010) - Jorge Michel Grau

forum resmi

Country: Mexico
Language: Spanish

When the patriarch of the family passes away, the teenage children must take responsibility for the family chores: the preparation of the rituals, the hunting and putting the all-important meat on the table. These newfound responsibilities are even more daunting, however, when you live in the city and happen to be a family of cannibals.

Format              : Matroska
File size            : 4.37 GiB
Duration             : 1h 28mn
Overall bit rate         : 7 025 Kbps

Format              : AVC
Format/Info           : Advanced Video Codec
Format profile          : High@L4.1
Duration             : 1h 28mn
Bit rate             : 5 515 Kbps
Width              : 1 280 pixels
Height              : 536 pixels
Display aspect ratio       : 2.35:1
Frame rate            : 24.000 fps
Bits/(Pixel*Frame)        : 0.335
Stream size           : 3.34 GiB (77%)
Language             : English

Format              : DTS
Bit rate mode          : Constant
Bit rate             : 1 510 Kbps
Channel(s)            : 6 channels
Channel positions        : Front: L C R, Side: L R, LFE
Sampling rate          : 48.0 KHz
Bit depth            : 24 bits
Stream size           : 961 MiB (21%)
Language             : Spanish


Post a Comment

Disclaimer does not host any of the files mentioned on this blog or on its own servers. only points out to various links on the Internet that already exist and are uploaded by other websites or users there. To clarify more please feel free to contact the webmasters anytime or read more Here.