Xiao cai feng (Balzac and the Little Chinese Seamstress) (2002) - Sijie Dai

forum resmi

Country: France, China
Language: Mandarin, French

In 1971 China, in the lingering grip of the cultural revolution, two university students, Luo and Ma, are sent to a mountain mining village as part of their reeducation duty to purge them of their classical western oriented education. Amid the backbreaking work and stifling ignorance of the community, the two boys find that music, and the presence of the beautiful local young women are the only pleasant things in their miserable life. However, none compare to the young seamstress granddaughter of the local tailor. Stealing a departing student\'s secret cache of forbidden books of classic western literature such as the works of Honore de Balzac, they set about to woo her and teach her things she had never imagined. In doing so, they start a journey that would profoundly change her perspective on her world and teach the boys about the power of literature and their own ability to change their world in truly revolutionary ways.



      Complete name : Balzac.And.The.Little.Chinese.Seamstress.2002.INT.DVDRip.XviD-3Mhome.avi
      Format : AVI
      Format/Info : Audio Video Interleave
      File size : 701 MiB
      Duration : 1h 46mn
      Overall bit rate : 923 Kbps
      Writing application : VirtualDubMod (build 2439/release)
      Writing library : VirtualDubMod build 2439/release
   Video #0
      ID : 0
      Format : MPEG-4 Visual
      Format profile : AdvancedSimple@L5
      Format settings, BVOP : Yes
      Format settings, QPel : No
      Format settings, GMC : No warppoints
      Format settings, Matrix : Default (H.263)
      Muxing mode : Packed bitstream
      Codec ID : XVID
      Codec ID/Hint : XviD
      Duration : 1h 46mn
      Bit rate : 790 Kbps
      Width : 640 pixels
      Height : 272 pixels
      Display aspect ratio : 2.35:1
      Frame rate : 23.976 fps
      Resolution : 24 bits
      Colorimetry : 4:2:0
      Scan type : Progressive
      Bits/(Pixel*Frame) : 0.189
      Stream size : 600 MiB (86%)
      Writing library : XviD 1.1.2 (UTC 2006-11-01)
   Audio #1
      ID : 1
      Format : MPEG Audio
      Format version : Version 1
      Format profile : Layer 3
      Codec ID : 55
      Codec ID/Hint : MP3
      Duration : 1h 46mn
      Bit rate mode : Variable
      Bit rate : 120 Kbps
      Nominal bit rate : 128 Kbps
      Channel(s) : 2 channels
      Sampling rate : 48.0 KHz
      Resolution : 16 bits
      Stream size : 91.5 MiB (13%)
      Alignment : Aligned on interleaves
      Interleave, duration : 24 ms (0.58 video frame)
      Interleave, preload duration : 541 ms
      Writing library : LAME3.96r
      Encoding settings : -m d -V 4 -q 3 -lowpass 17.5 --abr 128


cidrolin said...

no subtitles? those i found on the net don't match up

Fantilir said...

Files missing ...

Post a Comment


foreignmoviesddl.org does not host any of the files mentioned on this blog or on its own servers. foreignmoviesddl.org only points out to various links on the Internet that already exist and are uploaded by other websites or users there. To clarify more please feel free to contact the webmasters anytime or read more Here.