Morte a Venezia (Death in Venice) (1971) - Luchino Visconti

forum resmi

Country: Italy, France
Language: English, Italian, Polish, French

In this adaptation of the Thomas Mann novel, avant-garde composer Gustave Aschenbach (loosely based on Gustav Mahler) travels to a Venetian seaside resort in search of repose after a period of artistic and personal stress. But he finds no peace there, for he soon develops a troubling attraction to an adolescent boy, Tadzio, on vacation with his family. The boy embodies an ideal of beauty that Aschenbach has long sought and he becomes infatuated. However, the onset of a deadly pestilence threatens them both physically and represents the corruption that compromises and threatens all ideals.

Format : AVI
Format/Info : Audio Video Interleave
File size : 1.45 GiB
Duration : 2h 5mn
Overall bit rate : 1 658 Kbps
Writing application : VirtualDubMod (build 2540/release)
Writing library : VirtualDubMod build 2540/release

ID : 0
Format : MPEG-4 Visual
Format profile : AdvancedSimple@L5
Format settings, BVOP : Yes
Format settings, QPel : No
Format settings, GMC : No warppoints
Format settings, Matrix : Default (MPEG)
Codec ID : XVID
Codec ID/Hint : XviD
Duration : 2h 5mn
Bit rate : 1 458 Kbps
Width : 720 pixels
Height : 304 pixels
Display aspect ratio : 2.35:1
Frame rate : 25.000 fps
Resolution : 24 bits
Colorimetry : 4:2:0
Scan type : Progressive
Bits/(Pixel*Frame) : 0.266
Stream size : 1.27 GiB (88%)
Writing library : XviD 1.1.2 (UTC 2006-11-01)

ID : 1
Format : AC-3
Format/Info : Audio Coding 3
Codec ID : 2000
Duration : 2h 5mn
Bit rate mode : Constant
Bit rate : 192 Kbps
Channel(s) : 1 channel
Channel positions : C
Sampling rate : 48.0 KHz
Video delay : 16ms
Stream size : 172 MiB (12%)
Alignment : Split accross interleaves
Interleave, duration : 64 ms (1.60 video frames)
Interleave, preload duration : 64 ms


Post a Comment

Disclaimer does not host any of the files mentioned on this blog or on its own servers. only points out to various links on the Internet that already exist and are uploaded by other websites or users there. To clarify more please feel free to contact the webmasters anytime or read more Here.