Ilsa the Tigress of Siberia (1977) - Jean LaFleur


Language: English | Subs(idx/sub): Dutch
Country: Canada

http://www.imdb.com/title/tt0078398/

Siberia 1953: Ilsa is now working in a Gulag prison camp. Her mission is to 'retrain the minds' of those who don't agree with the communists. But prisoner, Yakurin, is more difficult than the others. Ilsa is not one to give up, though. 'We will break you', she promises. However, when Stalin dies, the camp closes down, Ilsa and the guards kill the prisoners and leave. But Yakurin survives. In 1977, Yakurin is the coach of the Soviet boxing team, and on a visit in Montreal, he lets the boxers visit a brothel. The owner of the brothel isIlsa and her colleagues from the Gulag camp. Ilsa sees Yakurin and wants a second chance to finish 'breaking' him, and Yakurin wants to get revenge...


http://www.filesonic.com/file/365987331/ls-ThTgrssfSbr.part01.rar
http://www.filesonic.com/file/365992984/ls-ThTgrssfSbr.part02.rar
http://www.filesonic.com/file/365993094/ls-ThTgrssfSbr.part03.rar
http://www.filesonic.com/file/365990564/ls-ThTgrssfSbr.part04.rar
http://www.filesonic.com/file/365990344/ls-ThTgrssfSbr.part05.rar
http://www.filesonic.com/file/401722371/ls-ThTgrssfSbr.part06.rar
http://www.filesonic.com/file/365993014/ls-ThTgrssfSbr.part07.rar
http://www.filesonic.com/file/365990424/ls-ThTgrssfSbr.part08.rar
http://www.filesonic.com/file/365993004/ls-ThTgrssfSbr.part09.rar
http://www.filesonic.com/file/365992924/ls-ThTgrssfSbr.part10.rar
http://www.filesonic.com/file/365990484/ls-ThTgrssfSbr.part11.rar
http://www.filesonic.com/file/365993054/ls-ThTgrssfSbr.part12.rar
http://www.filesonic.com/file/365992814/ls-ThTgrssfSbr.part13.rar
http://www.filesonic.com/file/365992864/ls-ThTgrssfSbr.part14.rar
http://www.filesonic.com/file/365992774/ls-ThTgrssfSbr.part15.rar
http://www.filesonic.com/file/365992934/ls-ThTgrssfSbr.part16.rar
http://www.filesonic.com/file/365992964/ls-ThTgrssfSbr.part17.rar

Password: wantan

DVDRip

Complete name : Ilsa - The Tigress of Siberia.mkv
Format : Matroska
File size : 1.50 GiB
Duration : 1:31:42
Overall bit rate : 2 341 Kbps
Encoded date : UTC 2010-06-15 17:32:09
Writing application : mkvmerge v3.3.0 ('Language') built on Mar 24 2010 14:59:24
Writing library : libebml v0.8.0 + libmatroska v0.9.0

Video
ID : 1
Format : AVC
Format/Info : Advanced Video Codec
Format profile : High@L3.0
Format settings, CABAC : Yes
Format settings, ReFrames : 5 frames
Muxing mode : Container profile=Unknown@3.0
Codec ID : V_MPEG4/ISO/AVC
Duration : 1h 31mn
Bit rate : 2 102 Kbps
Nominal bit rate : 2 147 Kbps
Width : 696 pixels
Height : 576 pixels
Display aspect ratio : 16:9
Original display aspect ratio : 16:9
Frame rate : 25.000 fps
Resolution : 8 bits
Colorimetry : 4:2:0
Scan type : Progressive
Bits/(Pixel*Frame) : 0.210
Stream size : 1.35 GiB (90%)
Writing library : x264 core 93 r1542 5b86182
Encoding settings : cabac=1 / ref=5 / deblock=1:-1:-1 / analyse=0x3:0x113 / me=umh / subme=9 / psy=1 / psy_rd=1.00:0.15 / mixed_ref=1 / me_range=16 / chroma_me=1 / trellis=1 / 8x8dct=1 / cqm=0 / deadzone=21,11 / fast_pskip=1 / chroma_qp_offset=-3 / threads=6 / sliced_threads=0 / nr=0 / decimate=1 / interlaced=0 / constrained_intra=0 / bframes=3 / b_pyramid=2 / b_adapt=2 / b_bias=0 / direct=3 / wpredb=1 / wpredp=2 / keyint=250 / keyint_min=25 / scenecut=40 / intra_refresh=0 / rc_lookahead=50 / rc=2pass / mbtree=1 / bitrate=2147 / ratetol=1.0 / qcomp=0.60 / qpmin=10 / qpmax=51 / qpstep=4 / cplxblur=20.0 / qblur=0.5 / ip_ratio=1.40 / aq=1:1.00

Audio
ID : 2
Format : AC-3
Format/Info : Audio Coding 3
Codec ID : A_AC3
Duration : 1h 31mn
Bit rate mode : Constant
Bit rate : 192 Kbps
Channel(s) : 2 channels
Channel positions : Front: L R
Sampling rate : 48.0 KHz
Stream size : 126 MiB (8%)
Title : Undetermined
Language : English

4 comments:

galmuchet said...

Test ... c'est quoi ce film erotique ???

HDTV said...

j get scared when j try this morning foreignmoviesddl.com, and saw redirection, thank u so much on this wonderfull site, please more rapidshare, megaupload download links

cheers

sucks said...

Thanks alot (joepie, nederlandse onderschriften ^^).
But part 6 is missing :(

Forbidden||Soul said...

links updated.

Post a Comment

Disclaimer

foreignmoviesddl.org does not host any of the files mentioned on this blog or on its own servers. foreignmoviesddl.org only points out to various links on the Internet that already exist and are uploaded by other websites or users there. To clarify more please feel free to contact the webmasters anytime or read more Here.