Beau travail (1999) - Claire Denis

forum resmi

This film focuses on ex-Foreign Legion officer, Galoup, as he recalls his once glorious life, leading troops in the Gulf of Djibouti. His existence there was happy, strict and regimented, but the arrival of a promising young recruit, Sentain, plants the seeds of jealousy in Galoup\'s mind. He feels compelled to stop him from coming to the attention of the commandant who he admires, but who ignores him. Ultimately, his jealousy leads to the destruction of both Sentain and himself.

Country: France
Language: French, Italian, Russian

http://www.imdb.com/title/tt0209933/



Format                           : AVI
Format/Info                      : Audio Video Interleave
File size                        : 1.37 GiB
Duration                         : 1h 29mn
Overall bit rate                 : 2 202 Kbps
Writing application              : VirtualDubMod 1.5.4.1 (build 2178/release)
Writing library                  : VirtualDubMod build 2178/release

Video
Format                           : MPEG-4 Visual
Format profile                   : Streaming Video@L1
Format settings, BVOP            : Yes
Format settings, QPel            : No
Format settings, GMC             : No warppoints
Format settings, Matrix          : Default
Muxing mode                      : Packed bitstream
Codec ID                         : XVID
Codec ID/Hint                    : XviD
Duration                         : 1h 29mn
Bit rate                         : 1 969 Kbps
Width                            : 672 pixels
Height                           : 416 pixels
Display aspect ratio             : 1.615
Frame rate                       : 29.970 fps
Resolution                       : 24 bits
Colorimetry                      : 4:2:0
Scan type                        : Progressive
Bits/(Pixel*Frame)               : 0.235
Stream size                      : 1.23 GiB (89%)
Writing library                  : XviD 1.1.0 Beta2 (UTC 2005-04-04)

Audio
Format                           : AC-3
Format/Info                      : Audio Coding 3
Codec ID                         : 2000
Duration                         : 1h 29mn
Bit rate mode                    : Constant
Bit rate                         : 224 Kbps
Channel(s)                       : 2 channels
Channel positions                : L R
Sampling rate                    : 48.0 KHz
Stream size                      : 143 MiB (10%)
Alignment                        : Split accross interleaves
Interleave, duration             : 67 ms (2.00 video frames)
Interleave, preload duration     : 500 ms

http://www.filesonic.com/file/360483264/1001.942.part01.rar
http://www.filesonic.com/file/360482244/1001.942.part02.rar
http://www.filesonic.com/file/360483414/1001.942.part03.rar
http://www.filesonic.com/file/360482894/1001.942.part04.rar
http://www.filesonic.com/file/360482984/1001.942.part05.rar
http://www.filesonic.com/file/360485624/1001.942.part06.rar
http://www.filesonic.com/file/360483854/1001.942.part07.rar
http://www.filesonic.com/file/360484184/1001.942.part08.rar
http://www.filesonic.com/file/360482404/1001.942.part09.rar
http://www.filesonic.com/file/360483824/1001.942.part10.rar
http://www.filesonic.com/file/360483314/1001.942.part11.rar
http://www.filesonic.com/file/360482444/1001.942.part12.rar
http://www.filesonic.com/file/360482484/1001.942.part13.rar
http://www.filesonic.com/file/360482924/1001.942.part14.rar
http://www.filesonic.com/file/360481464/1001.942.part15.rar

1 comments:

Nashay said...

Its good to know that the site is still alive, this is by far the best site for movies, keep up the good work!

Post a Comment

Disclaimer

foreignmoviesddl.org does not host any of the files mentioned on this blog or on its own servers. foreignmoviesddl.org only points out to various links on the Internet that already exist and are uploaded by other websites or users there. To clarify more please feel free to contact the webmasters anytime or read more Here.