Delirio caldo (Delirium) (1972) - Renato Polselli

forum resmi

http://www.imdb.com/title/tt0068471/

A respected doctor becomes the prime suspect in a series of gruesome murders.
Whenever I take a look at today’s big multiplex cinemasm playing nothing but dreck, I’m really happy, that, in better times, films like this one have been made: “Delirio Caldo” is a sick, a-logical and hilariously funny thriller, the nightmare of any “cineaste”. There’s lots of violence, psychedelic colours, stylish cinematography and enough of that naive “misogyny” prevalent in 70ies cinema to make any PC-feminists break out in tears. What else could one ask for? Be sure not to miss this treat. And, by the way, watch the continental cut, as the english-dubbed version has been shorn of nearly 20 minutes of fun!

Synopsis:
Italian filmmaker Renato Polselli (aka Ralph Brown) wrote and directed this wonderfully sick and demented giallo thriller, a shining example of the sort of outrageous psychosexual perversity for which the genre has become cherished by cult enthusiasts.
Former Mr. Universe Mickey Hargitay was already a sleaze favorite for his turn as Il Boio Scarlatto and his disingenuously tearful tour of his late wife's estate in The Wild, Wild World of Jayne Mansfield. Hargitay only solidifies that image here as Prof. Herbert Lyutak, a perverse sex maniac employed as a criminal psychologist.
Lyutak is first seen giving a young woman a ride in his car, eventually attacking her and chasing her through the woods to a creek, where he beats her to death. Lyutak's wife finds his bloody shirt, but because there is another murder while the demented shrink is consulting the police, he is cleared.
Working with the authorities, Lyutak has a family friend pose as a prostitute to catch the killer, but he simply murders another hooker not far away. The bodies continue piling up, with so many alibis and confusing contradictions that it soon becomes apparent the killings are the work of several hands.
Polselli keeps the sleaze factor high throughout, notably in some psychedelic nightmare sequences featuring Lyutak's fantasies of torturing nude women in his basement and in the murder of [the prostitute], which features some fairly graphic whipping and kinky sexual allusions.
There's also lesbianism, strangulation, and an interesting synth-rock score by Gianfranco Reverberi to keep viewers interested, and the ultimate conclusion is -- in keeping with the title -- a delirious, bloody battle between three psychopaths in a cellar.
That's only in the original version, however, because the American re-edit removed most of the sleaze, changed the setting from England to the United States, and added two extra murders and a police shootout, not to mention some dubious Vietnam flashbacks. The ultimate entertainment value to genre enthusiasts, therefore, is highly dependent on which version they see, as the extensive changes reduce a wild, flamboyant shocker to just another dull mystery. Gaetano Cimarosa and Stefano Oppedisano co-star.

http://img20.imageshack.us/img20/9718/delirium1972ss.jpg
http://www.filesonic.com/file/334085471/Dlrm.part01.rar
http://www.filesonic.com/file/334083131/Dlrm.part02.rar
http://www.filesonic.com/file/334083481/Dlrm.part03.rar
http://www.filesonic.com/file/334085211/Dlrm.part04.rar
http://www.filesonic.com/file/334085141/Dlrm.part05.rar
http://www.filesonic.com/file/334085341/Dlrm.part06.rar
http://www.filesonic.com/file/334083271/Dlrm.part07.rar
http://www.filesonic.com/file/334085091/Dlrm.part08.rar
http://www.filesonic.com/file/334083001/Dlrm.part09.rar
http://www.filesonic.com/file/334083331/Dlrm.part10.rar
http://www.filesonic.com/file/334085301/Dlrm.part11.rar
http://www.filesonic.com/file/334083051/Dlrm.part12.rar
http://www.filesonic.com/file/334083231/Dlrm.part13.rar
http://www.filesonic.com/file/334085271/Dlrm.part14.rar
http://www.filesonic.com/file/334085131/Dlrm.part15.rar
http://www.filesonic.com/file/334082731/Dlrm.part16.rar
http://www.filesonic.com/file/334082671/Dlrm.part17.rar

pass: wantan


DVDRip
italian language only, english subtitles (idx/sub) included

Complete name : Delirium.mkv
Format : Matroska
File size : 1.50 GiB
Duration : 1:41:44
Overall bit rate : 2 111 Kbps
Encoded date : UTC 2010-08-19 02:54:28
Writing application : mkvmerge v4.2.0 ('No Talking') built on Jul 28 2010 18:38:23
Writing library : libebml v1.0.0 + libmatroska v1.0.0

Video
ID : 1
Format : AVC
Format/Info : Advanced Video Codec
Format profile : High@L3.1
Format settings, CABAC : Yes
Format settings, ReFrames : 8 frames
Format settings, GOP : M=1, N=27
Muxing mode : Container profile=Unknown@3.1
Codec ID : V_MPEG4/ISO/AVC
Duration : 1h 41mn
Bit rate : 1 917 Kbps
Width : 708 pixels
Height : 462 pixels
Display aspect ratio : 1.857
Original display aspect ratio : 1.858
Frame rate : 23.976 fps
Color space : YUV
Chroma subsampling : 4:2:0
Bit depth : 8 bits
Scan type : Progressive
Bits/(Pixel*Frame) : 0.244
Stream size : 1.33 GiB (89%)
Writing library : x264 core 104 r1683 62997d6
Encoding settings : cabac=1 / ref=8 / deblock=1:-1:-1 / analyse=0x3:0x133 / me=umh / subme=9 / psy=1 / psy_rd=1.00:0.15 / mixed_ref=1 / me_range=16 / chroma_me=1 / trellis=2 / 8x8dct=1 / cqm=0 / deadzone=21,11 / fast_pskip=1 / chroma_qp_offset=-3 / threads=6 / sliced_threads=0 / nr=0 / decimate=1 / interlaced=0 / constrained_intra=0 / bframes=3 / b_pyramid=2 / b_adapt=2 / b_bias=0 / direct=3 / weightb=1 / open_gop=0 / weightp=2 / keyint=250 / keyint_min=23 / scenecut=40 / intra_refresh=0 / rc_lookahead=60 / rc=2pass / mbtree=1 / bitrate=1917 / ratetol=1.0 / qcomp=0.60 / qpmin=10 / qpmax=51 / qpstep=4 / cplxblur=20.0 / qblur=0.5 / ip_ratio=1.40 / aq=1:1.00

Audio
ID : 2
Format : AC-3
Format/Info : Audio Coding 3
Mode extension : CM (complete main)
Codec ID : A_AC3
Duration : 1h 41mn
Bit rate mode : Constant
Bit rate : 192 Kbps
Channel(s) : 2 channels
Channel positions : Front: L R
Sampling rate : 48.0 KHz
Bit depth : 16 bits
Stream size : 140 MiB (9%)
Title : Italian
Language : Italian

0 comments:

Post a Comment

Disclaimer

foreignmoviesddl.org does not host any of the files mentioned on this blog or on its own servers. foreignmoviesddl.org only points out to various links on the Internet that already exist and are uploaded by other websites or users there. To clarify more please feel free to contact the webmasters anytime or read more Here.