Nice Guy Johnny (2010) - Edward Burns

Image

http://www.imdb.com/title/tt1619037/ 

Johnny Rizzo, is about to trade his dream job in talk radio for some snooze-ville gig that'll pay enough to please his fiancée. Enter Uncle Terry, a rascally womanizer set on turning a weekend in the Hamptons into an eye-opening fling for his nephew. Nice guy Johnny's not interested, of course, but then he meets the lovely Brooke, who challenges Johnny to make the toughest decision of is life.




Uploaded with ImageShack.us


http://www.filesonic.com/file/29507719/Nice.Guy.Johnny.2010.FESTIVAL.DVDRip.XviD.avi.001
http://www.filesonic.com/file/29507573/Nice.Guy.Johnny.2010.FESTIVAL.DVDRip.XviD.avi.002
http://www.filesonic.com/file/29507701/Nice.Guy.Johnny.2010.FESTIVAL.DVDRip.XviD.avi.003

Join with HJsplit


Format : AVI
Format/Info : Audio Video Interleave
File size : 702 MiB
Duration : 1h 30mn
Overall bit rate : 1 088 Kbps
Writing application : VirtualDubMod 1.5.10.2 (build 2542/release)
Writing library : VirtualDubMod build 2542/release

Video
ID : 0
Format : MPEG-4 Visual
Format profile : Advanced Simple@L5
Format settings, BVOP : Yes
Format settings, QPel : No
Format settings, GMC : No warppoints
Format settings, Matrix : Default (H.263)
Codec ID : XVID
Codec ID/Hint : XviD
Duration : 1h 30mn
Bit rate : 942 Kbps
Width : 608 pixels
Height : 304 pixels
Display aspect ratio : 2.000
Frame rate : 23.976 fps
Color space : YUV
Chroma subsampling : 4:2:0
Bit depth : 8 bits
Scan type : Progressive
Bits/(Pixel*Frame) : 0.212
Stream size : 608 MiB (87%)
Writing library : XviD 1.2.1 (UTC 2008-12-04)

Audio
ID : 1
Format : MPEG Audio
Format version : Version 1
Format profile : Layer 3
Mode : Joint stereo
Codec ID : 55
Codec ID/Hint : MP3
Duration : 1h 30mn
Bit rate mode : Variable
Bit rate : 128 Kbps
Channel(s) : 2 channels
Sampling rate : 48.0 KHz
Stream size : 86.2 MiB (12%)
Alignment : Aligned on interleaves
Interleave, duration : 24 ms (0.58 video frame)
Interleave, preload duration : 137 ms
Writing library : LAME3.90.
Encoding settings : -m j -V 4 -q 2 -lowpass 17.6 --abr 128

0 comments:

Post a Comment

Disclaimer

foreignmoviesddl.org does not host any of the files mentioned on this blog or on its own servers. foreignmoviesddl.org only points out to various links on the Internet that already exist and are uploaded by other websites or users there. To clarify more please feel free to contact the webmasters anytime or read more Here.