La femme de Rose Hill (1989) - Alain Tanner


Julie is a young woman from Rose Hill (Mauritius) who arrives in rural Switzerland to marry her older pen-friend Marcel. She feels unhappy until she meets Jean, a younger man. However, his father disagrees.

http://www.imdb.com/title/tt0097347/







General
Complete name : I:FEMME_ROSE_HILLLa femme de Rose Hill (Alain Tanner, 1989).avi
Format : AVI
Format/Info : Audio Video Interleave
File size : 1.10 GiB
Duration : 1h 31mn
Overall bit rate : 1 721 Kbps
Writing application : VirtualDubMod 1.5.10.2 (build 2540/release)
Writing library : VirtualDubMod build 2540/release

Video
ID : 0
Format : MPEG-4 Visual
Format profile : Advanced Simple@L5
Format settings, BVOP : Yes
Format settings, QPel : No
Format settings, GMC : No warppoints
Format settings, Matrix : Default (MPEG)
Codec ID : XVID
Codec ID/Hint : XviD
Duration : 1h 31mn
Bit rate : 1 323 Kbps
Width : 688 pixels
Height : 320 pixels
Display aspect ratio : 2.2:1
Frame rate : 25.000 fps
Color space : YUV
Chroma subsampling : 4:2:0
Bit depth : 8 bits
Scan type : Progressive
Bits/(Pixel*Frame) : 0.240
Stream size : 865 MiB (77%)
Writing library : XviD 1.2.1 (UTC 2008-12-04)

Audio #1
ID : 1
Format : AC-3
Format/Info : Audio Coding 3
Mode extension : CM (complete main)
Codec ID : 2000
Duration : 1h 31mn
Bit rate mode : Constant
Bit rate : 192 Kbps
Channel(s) : 2 channels
Channel positions : Front: L R
Sampling rate : 48.0 KHz
Bit depth : 16 bits
Stream size : 126 MiB (11%)
Alignment : Split accross interleaves
Interleave, duration : 40 ms (1.00 video frame)
Interleave, preload duration : 500 ms

Audio #2
ID : 2
Format : AC-3
Format/Info : Audio Coding 3
Mode extension : CM (complete main)
Codec ID : 2000
Duration : 1h 31mn
Bit rate mode : Constant
Bit rate : 192 Kbps
Channel(s) : 2 channels
Channel positions : Front: L R
Sampling rate : 48.0 KHz
Bit depth : 16 bits
Stream size : 126 MiB (11%)
Alignment : Split accross interleaves
Interleave, duration : 40 ms (1.00 video frame)
Interleave, preload duration : 500 ms




File: La femme de Rose Hill (Alain Tanner, 1989).avi
Filesize: 1125.46 Mb ( 1 180 127 232 bytes )
Play length: 01:31:25.080 (137127 frames)
Subtitles: Not Present
Video: 688x320 (2.15:1), 25 fps, XviD MPEG-4 ~1321 kbps avg, 0.24 bit/pixel
Audio #1: 48 kHz, AC3 Dolby Digital, 2/0 (L,R) ch, ~192.00 kbps avg french
Audio #2: 48 kHz, AC3 Dolby Digital, 2/0 (L,R) ch, ~192.00 kbps avg spanish

http://www.filesonic.com/file/33967473/La femme de Rose Hill (Alain Tanner, 1989).avi.001
http://www.filesonic.com/file/33965847/La femme de Rose Hill (Alain Tanner, 1989).avi.002
http://www.filesonic.com/file/33966941/La femme de Rose Hill (Alain Tanner, 1989).avi.003
http://www.filesonic.com/file/33963895/La femme de Rose Hill (Alain Tanner, 1989).avi.004
http://www.filesonic.com/file/33963399/La femme de Rose Hill (Alain Tanner, 1989).avi.005

Join with HJsplit

No subtitle

Mirror

http://www.fileserve.com/file/BgUTeKg
http://www.fileserve.com/file/xpnTtU7
http://www.fileserve.com/file/4z9JZZm
http://www.fileserve.com/file/Qg5DgPE
http://www.fileserve.com/file/ksnmS4Q
http://www.fileserve.com/file/sqkwAsq

0 comments:

Post a Comment

Disclaimer

foreignmoviesddl.org does not host any of the files mentioned on this blog or on its own servers. foreignmoviesddl.org only points out to various links on the Internet that already exist and are uploaded by other websites or users there. To clarify more please feel free to contact the webmasters anytime or read more Here.