The Butch Factor (2009) - Christopher Hines


It's a challenging undertaking to examine "the butch factor" as it relates to gay men, and the filmmakers have done an OK job. They interview all kinds of gay men: guys who play football, rugby, guys involved in rodeo, and other stereotypical masculine pursuits. This is balanced somewhat by interviews with "feminine" men. Also included are interviews with sociologists and others who study masculinity and gay culture.

However, the "movie" has an "E channel" look and feel. Lots of gratuitous shots of chests, butts, etc. Is this a documentary, or is it selling itself as fun to watch?

http://www.imdb.com/title/tt1494815/






Uploaded with ImageShack.us

http://www.filesonic.com/file/29507645/tbf.avi.001
http://www.filesonic.com/file/29507561/tbf.avi.002
http://www.filesonic.com/file/29507521/tbf.avi.003

Join with HJsplit


Format : AVI
Format/Info : Audio Video Interleave
File size : 697 MiB
Duration : 1h 35mn
Overall bit rate : 1 022 Kbps
Writing application : VirtualDubMod 1.5.10.2 (build 2540/release)
Writing library : VirtualDubMod build 2540/release

Video
ID : 0
Format : MPEG-4 Visual
Format profile : Advanced Simple@L5
Format settings, BVOP : Yes
Format settings, QPel : No
Format settings, GMC : No warppoints
Format settings, Matrix : Default (H.263)
Codec ID : XVID
Codec ID/Hint : XviD
Duration : 1h 35mn
Bit rate : 893 Kbps
Width : 624 pixels
Height : 352 pixels
Display aspect ratio : 16:9
Frame rate : 23.976 fps
Color space : YUV
Chroma subsampling : 4:2:0
Bit depth : 8 bits
Scan type : Progressive
Bits/(Pixel*Frame) : 0.170
Stream size : 609 MiB (87%)
Writing library : XviD 1.2.1 (UTC 2008-12-04)

Audio
ID : 1
Format : MPEG Audio
Format version : Version 1
Format profile : Layer 3
Mode : Joint stereo
Mode extension : MS Stereo
Codec ID : 55
Codec ID/Hint : MP3
Duration : 1h 35mn
Bit rate mode : Variable
Bit rate : 116 Kbps
Channel(s) : 2 channels
Sampling rate : 48.0 KHz
Stream size : 79.2 MiB (11%)
Alignment : Aligned on interleaves
Interleave, duration : 24 ms (0.58 video frame)
Interleave, preload duration : 158 ms
Writing library : LAME3.90
Encoding settings : -m j -V 0 -q 0 -lowpass 19.5 --vbr-new

0 comments:

Post a Comment

Disclaimer

foreignmoviesddl.org does not host any of the files mentioned on this blog or on its own servers. foreignmoviesddl.org only points out to various links on the Internet that already exist and are uploaded by other websites or users there. To clarify more please feel free to contact the webmasters anytime or read more Here.