Over-sexed Rugsuckers from Mars (1989) - Michael Paul Girard

Image

Naked aliens from Mars land on Earth and try to create a new species that is a cross between humans and vacuum cleaners. After mating with homeless man Vernon (~censored~ Monda), one vacuum becomes an unstoppable killer that strangles women and sucks their blood. Full of lowbrow humor, gross-out moments, silly special effects and plenty of violence, this low-budget film has gained notoriety as a cult classic.

 http://akas.imdb.com/title/tt0200940/



Image

Image

Image

Image

Image
 
eneral
Format                           : AVI
Format/Info                      : Audio Video Interleave
File size                        : 699 MiB
Duration                         : 1h 23mn

Video
ID                               : 0
Format                           : MPEG-4 Visual
Format profile                   : Advanced Simple@L5
Format settings, BVOP            : Yes
Format settings, QPel            : No
Format settings, GMC             : No warppoints
Format settings, Matrix          : Default (MPEG)
Codec ID                         : XVID
Codec ID/Hint                    : XviD
Duration                         : 1h 23mn
Bit rate                         : 1 028 Kbps
Width                            : 576 pixels
Height                           : 432 pixels
Display aspect ratio             : 4:3
Frame rate                       : 23.976 fps
Color space                      : YUV
Chroma subsampling               : 4:2:0
Bit depth                        : 8 bits
Scan type                        : Progressive
Bits/(Pixel*Frame)               : 0.172
Stream size                      : 617 MiB (88%)
Writing library                  : XviD 1.2.0.dev47 (UTC 2006-11-01)

Audio
ID                               : 1
Format                           : MPEG Audio
Format version                   : Version 1
Format profile                   : Layer 3
Mode                             : Joint stereo
Mode extension                   : MS Stereo
Codec ID                         : 55
Codec ID/Hint                    : MP3
Duration                         : 1h 23mn
Bit rate mode                    : Variable
Bit rate                         : 128 Kbps
Channel(s)                       : 2 channels
Sampling rate                    : 48.0 KHz
Stream size                      : 74.6 MiB (11%)
Alignment                        : Aligned on interleaves
Interleave, duration             : 24 ms (0.58 video frame)
Interleave, preload duration     : 527 ms
Writing library                  : LAME3.90.
Encoding settings                : -m j -V 4 -q 2 -lowpass 17.6 --abr 128

http://www.filesonic.com/file/27744071/0versexedRugsuckers-BadSeed.part1.rar
http://www.filesonic.com/file/27745873/0versexedRugsuckers-BadSeed.part2.rar
http://www.filesonic.com/file/27744177/0versexedRugsuckers-BadSeed.part3.rar
http://www.filesonic.com/file/27744119/0versexedRugsuckers-BadSeed.part4.rar

No Password

Mirror

http://www.fileserve.com/file/DGTybfj/0versexedRugsuckers-BadSeed.part1.rar
http://www.fileserve.com/file/xQYQeau/0versexedRugsuckers-BadSeed.part2.rar
http://www.fileserve.com/file/mnx4un8/0versexedRugsuckers-BadSeed.part3.rar
http://www.fileserve.com/file/sfqYhxz/0versexedRugsuckers-BadSeed.part4.rar

0 comments:

Post a Comment

Disclaimer

foreignmoviesddl.org does not host any of the files mentioned on this blog or on its own servers. foreignmoviesddl.org only points out to various links on the Internet that already exist and are uploaded by other websites or users there. To clarify more please feel free to contact the webmasters anytime or read more Here.