Impudicizia (1991) - Pasquale Fanetti

Florence is the unsatisfied wife of a museum director. In his efforts are worthless outside of seduction order (one day before the strips in the middle of antiquities). Moreover, man has decided to adopt a boy who, whenever he can, light a new mother naked. To resolve the problem will take care of the maid that will convince the lady to grant her attentions to other men.

If someone in the future would study the last gasps of the Italian erotic cinema should use this film. He still got almost nothing. Since cultural references (the story of Maupassant "Florentine"), which should justify the vision. Following with the porn star known in the environment to allow for the possible dual use of the film (in the normal circuit with the sex scenes and purified in the porn circuit with integral vision). Add to this, a scenario in which the poor are made to pronounce Florence soap-opera characters, and then, icing on the cake, the little boy who is usually on the screen what the viewer is in the lounge, watch hoping for something else. Who was entrusted with the most unlikely scene of all: that drops an object from the dinner table and slips under the table to scrutinize more closely what the interests of Florence. The adoptive father, who was also sitting at the table, do not bat an eyelid. The film is exemplary and also to check that, in the jargon, is called "making the meter." There is movement from one room to another, there is no path that is not taken with the accompanying trucks and shown in its entirety. People have to arrive an hour and twenty minutes.


Format : AVI
Format/Info : Audio Video Interleave
File size : 697 MiB
Duration : 1h 24mn
Overall bit rate : 1 158 Kbps
Writing application : VirtualDubMod (build 2439/release)
Writing library : VirtualDubMod build 2439/release


Format : MPEG-4 Visual
Format profile : Advanced Simple@L5
Format settings, BVOP : Yes
Format settings, QPel : No
Format settings, GMC : No warppoints
Format settings, Matrix : Default (H.263)
Muxing mode : Packed bitstream
Codec ID : XVID
Codec ID/Hint : XviD
Duration : 1h 24mn
Bit rate : 1 020 Kbps
Width : 624 pixels
Height : 336 pixels
Display aspect ratio : 1.857
Frame rate : 25.000 fps
Color space : YUV
Chroma subsampling : 4:2:0
Bit depth : 8 bits
Scan type : Progressive
Bits/(Pixel*Frame) : 0.195
Stream size : 614 MiB (88%)
Writing library : XviD 1.1.2 (UTC 2006-11-01)


Format : MPEG Audio
Format version : Version 1
Format profile : Layer 3
Mode : Joint stereo
Mode extension : MS Stereo
Codec ID : 55
Codec ID/Hint : MP3
Duration : 1h 24mn
Bit rate mode : Constant
Bit rate : 128 Kbps
Channel(s) : 2 channels
Sampling rate : 48.0 KHz
Stream size : 77.1 MiB (11%)
Alignment : Aligned on interleaves
Interleave, duration : 40 ms (1.00 video frame)
Interleave, preload duration : 504 ms

Join with HJsplit


Post a Comment

Disclaimer does not host any of the files mentioned on this blog or on its own servers. only points out to various links on the Internet that already exist and are uploaded by other websites or users there. To clarify more please feel free to contact the webmasters anytime or read more Here.