El mundo de los vampiros (1961) - Alfonso Corona Blake

Image

Wonderfully atmospheric and gothically charged, World of Vampires is a subterranean world dripping in unbridled evil. As the dreaded vampire, Count Subotai (Guillermo Murray), plays his pipe organ of human bones, summoning an army of the undead, a band of intrepid adventures led by Mauricio Garcés and Silvia Fournier must confront the Count and his terrifying minions.

http://akas.imdb.com/title/tt0054484/




Image

Image

Image

Image 



General
Format                           : AVI
Format/Info                      : Audio Video Interleave
File size                        : 700 MiB
Duration                         : 1h 24mn

Video
ID                               : 0
Format                           : MPEG-4 Visual
Format profile                   : Advanced Simple@L5
Format settings, BVOP            : Yes
Format settings, QPel            : No
Format settings, GMC             : No warppoints
Format settings, Matrix          : Custom
Codec ID                         : XVID
Codec ID/Hint                    : XviD
Duration                         : 1h 24mn
Bit rate                         : 933 Kbps
Width                            : 624 pixels
Height                           : 464 pixels
Display aspect ratio             : 4:3
Frame rate                       : 25.000 fps
Color space                      : YUV
Chroma subsampling               : 4:2:0
Bit depth                        : 8 bits
Scan type                        : Progressive
Bits/(Pixel*Frame)               : 0.129
Stream size                      : 561 MiB (80%)
Writing library                  : XviD 1.2.0.dev47 (UTC 2006-11-01)

Audio
ID                               : 1
Format                           : AC-3
Format/Info                      : Audio Coding 3
Mode extension                   : CM (complete main)
Codec ID                         : 2000
Duration                         : 1h 24mn
Bit rate mode                    : Constant
Bit rate                         : 224 Kbps
Channel(s)                       : 2 channels
Channel positions                : Front: L R
Sampling rate                    : 48.0 KHz
Stream size                      : 135 MiB (19%)
Alignment                        : Aligned on interleaves
Interleave, duration             : 96 ms (2.40 video frames)
Interleave, preload duration     : 96 ms

http://www.filesonic.com/file/27746463/MundoVampiros-BadSeed.part1.rar
http://www.filesonic.com/file/27745019/MundoVampiros-BadSeed.part2.rar
http://www.filesonic.com/file/27745339/MundoVampiros-BadSeed.part3.rar
http://www.filesonic.com/file/27745631/MundoVampiros-BadSeed.part4.rar

No Password

English subtitle included.

Mirror
http://www.fileserve.com/file/zTjhNwW/MundoVampiros-BadSeed.part1.rar
http://www.fileserve.com/file/M6H8QXa/MundoVampiros-BadSeed.part2.rar
http://www.fileserve.com/file/rVkCv65/MundoVampiros-BadSeed.part3.rar
http://www.fileserve.com/file/Tehk66D/MundoVampiros-BadSeed.part4.rar

1 comments:

A said...

Thank you.

Post a Comment

Disclaimer

foreignmoviesddl.org does not host any of the files mentioned on this blog or on its own servers. foreignmoviesddl.org only points out to various links on the Internet that already exist and are uploaded by other websites or users there. To clarify more please feel free to contact the webmasters anytime or read more Here.