DONATE







Make your donation now, for the site to be alive.
Since Paypal donation button is not available for the country I live in I've given buy now button for you.

- Admin




















Brennende Blomster (Burning Flowers) (1985) - Eva Dahr, Eva Isaksen


A lonely, striking older woman and a shy young student who delivers flowers as a part-time job are attracted to each other in this engaging story. It is the mid-1960s and Hermann (Torstein Hølmebakk) buys Beatles records like everyone else, he also indulges in an erotic magazine or two to satisfy a growing curiosity about sex, and he is not actively pursuing his occasional date Unni (Karoline Waal). Instead, Hermann's imagination has been quickened by Rose (Lise Fjeldstad), a woman who orders flowers for herself on a regular basis. As Rose tells Hermann the story of how she used to work in the circus in a trapeze act but was deserted by her lover when she became pregnant, Hermann is even more enthralled by her appeal as a woman...and a close encounter of the traditional kind seems almost inevitable.

http://www.imdb.com/title/tt0088849/


Screenie

4383678_brennende_blomster___-1985-avi_thumbs_-2010-10-30_01-25-58.jpg

Format : AVI
Format/Info : Audio Video Interleave
File size : 1.21 GiB
Duration : 1h 19mn
Overall bit rate : 2 198 Kbps

Video

Format : MPEG-4 Visual
Format profile : Advanced Simple@L5
Format settings, BVOP : Yes
Format settings, QPel : No
Format settings, GMC : No warppoints
Format settings, Matrix : Default (H.263)
Muxing mode : Packed bitstream
Codec ID : XVID
Codec ID/Hint : XviD
Duration : 1h 19mn
Bit rate : 1 995 Kbps
Width : 640 pixels
Height : 480 pixels
Display aspect ratio : 4:3
Frame rate : 24.000 fps
Color space : YUV
Chroma subsampling : 4:2:0
Bit depth : 8 bits
Scan type : Progressive
Bits/(Pixel*Frame) : 0.271
Stream size : 1.10 GiB (91%)
Writing library : XviD 1.1.2 (UTC 2006-11-01)

Audio

Format : MPEG Audio
Format version : Version 1
Format profile : Layer 3
Codec ID : 55
Codec ID/Hint : MP3
Duration : 1h 19mn
Bit rate mode : Constant
Bit rate : 192 Kbps
Channel(s) : 2 channels
Sampling rate : 44.1 KHz
Stream size : 109 MiB (9%)
Alignment : Split accross interleaves
Interleave, duration : 33 ms (0.80 video frame)
Writing library : LAMELAME_MAJOR_VERSI

English Hardsubs

http://www.filesonic.com/file/28350259/Brennende_Blomster___(1985).avi.001
http://www.filesonic.com/file/28350029/Brennende_Blomster___(1985).avi.002
http://www.filesonic.com/file/28350129/Brennende_Blomster___(1985).avi.003
http://www.filesonic.com/file/28349791/Brennende_Blomster___(1985).avi.004
http://www.filesonic.com/file/28362761/Brennende_Blomster___(1985).avi.005

Join with HJsplit

Mirror

http://www.fileserve.com/file/C8wrU6N/Brennende_Blomster___(1985).avi.001
http://www.fileserve.com/file/rjj2fhA/Brennende_Blomster___(1985).avi.002
http://www.fileserve.com/file/RqEYe9y/Brennende_Blomster___(1985).avi.003
http://www.fileserve.com/file/7jMkhRw/Brennende_Blomster___(1985).avi.004
http://www.fileserve.com/file/ydr9kpx/Brennende_Blomster___(1985).avi.005

1 comments:

Masg said...

DEAD

Post a Comment

Disclaimer

foreignmoviesddl.org does not host any of the files mentioned on this blog or on its own servers. foreignmoviesddl.org only points out to various links on the Internet that already exist and are uploaded by other websites or users there. To clarify more please feel free to contact the webmasters anytime or read more Here.