Afsporet (1942) - Bodil Ipsen, Lau Lauritzen

Image

Afsporet (English: Derailed) is a 1942 Danish thriller directed by Bodil Ipsen and Lau Lauritzen Jr. Starring Ebbe Rode and Illona Wieselmann, the psychological drama revolves around the intense erotic relationship between a wealthy married woman suffering from amnesia and a paroled petty thief entangled with organized crime. Afsporet was Ipsen's directorial debut and is considered the first true Danish film noir.

http://www.imdb.com/title/tt0034435/


 Image

Image

Image

Image

Image

General
Format                           : AVI
Format/Info                      : Audio Video Interleave
File size                        : 900 MiB
Duration                         : 1h 41mn

Video
ID                               : 0
Format                           : MPEG-4 Visual
Format profile                   : Simple@L3
Format settings, BVOP            : Yes
Format settings, QPel            : No
Format settings, GMC             : No warppoints
Format settings, Matrix          : Custom
Codec ID                         : XVID
Codec ID/Hint                    : XviD
Duration                         : 1h 41mn
Bit rate                         : 1 119 Kbps
Width                            : 576 pixels
Height                           : 432 pixels
Display aspect ratio             : 4:3
Frame rate                       : 25.000 fps
Color space                      : YUV
Chroma subsampling               : 4:2:0
Bit depth                        : 8 bits
Scan type                        : Progressive
Bits/(Pixel*Frame)               : 0.180
Stream size                      : 811 MiB (90%)
Writing library                  : XviD 1.0.1 (UTC 2004-06-05)

Audio
ID                               : 1
Format                           : MPEG Audio
Format version                   : Version 1
Format profile                   : Layer 3
Mode                             : Joint stereo
Mode extension                   : MS Stereo
Codec ID                         : 55
Codec ID/Hint                    : MP3
Duration                         : 1h 41mn
Bit rate mode                    : Variable
Bit rate                         : 110 Kbps
Nominal bit rate                 : 128 Kbps
Channel(s)                       : 2 channels
Sampling rate                    : 48.0 KHz
Stream size                      : 79.6 MiB (9%)
Alignment                        : Aligned on interleaves
Interleave, duration             : 24 ms (0.60 video frame)
Interleave, preload duration     : 535 ms
Writing library                  : LAME3.98r
Encoding settings                : -m j -V 4 -q 2 -lowpass 17 --abr 128

http://www.filesonic.com/file/27744411/Afsp0ret-BadSeed.part1.rar
http://www.filesonic.com/file/27744425/Afsp0ret-BadSeed.part2.rar
http://www.filesonic.com/file/27744431/Afsp0ret-BadSeed.part3.rar
http://www.filesonic.com/file/27746661/Afsp0ret-BadSeed.part4.rar
http://www.filesonic.com/file/27744643/Afsp0ret-BadSeed.part5.rar

No Password

Mirror

http://www.fileserve.com/file/SnSexeB/Afsp0ret-BadSeed.part1.rar
http://www.fileserve.com/file/vcenj4W/Afsp0ret-BadSeed.part2.rar
http://www.fileserve.com/file/m5sRdAU/Afsp0ret-BadSeed.part3.rar
http://www.fileserve.com/file/2JZ9dgS/Afsp0ret-BadSeed.part4.rar
http://www.fileserve.com/file/G4F6UdZ/Afsp0ret-BadSeed.part5.rar

0 comments:

Post a Comment

Disclaimer

foreignmoviesddl.org does not host any of the files mentioned on this blog or on its own servers. foreignmoviesddl.org only points out to various links on the Internet that already exist and are uploaded by other websites or users there. To clarify more please feel free to contact the webmasters anytime or read more Here.