Isn't It Shocking? (1973) - John Badham


This curious made-for-TV movie stars Alan Alda as a police detective in a small New England town. The community's elderly are dying at an unusual rate, prompting Alda to investigate. He deduces that the old folks are being murdered, but can't find a motive (there are no robberies involved, and none of the victims have any enemies to speak of). The hunt for the killer becomes personal when Alda's best friend, police chief Lloyd Nolan, falls victim to the unknown assailant. With the help of his funky girlfriend Louise Lasser, Alda assembles the clues and arrives at a startling conclusion. Isn't it Shocking? is enhanced by the presence of several veteran character actors, including Ruth Gordon as a disheveled cat fancier.

 http://akas.imdb.com/title/tt0070229/







Avi details:
Code:

General
Format : AVI
Format/Info : Audio Video Interleave
File size : 699 MiB
Duration : 1h 13mn

Video
ID : 0
Format : MPEG-4 Visual
Format profile : Advanced Simple@L5
Format settings, BVOP : Yes
Format settings, QPel : No
Format settings, GMC : No warppoints
Format settings, Matrix : Default (H.263)
Muxing mode : Packed bitstream
Codec ID : XVID
Codec ID/Hint : XviD
Duration : 1h 13mn
Bit rate : 1 187 Kbps
Width : 512 pixels
Height : 368 pixels
Display aspect ratio : 1.391
Frame rate : 29.970 fps
Color space : YUV
Chroma subsampling : 4:2:0
Bit depth : 8 bits
Scan type : Progressive
Bits/(Pixel*Frame) : 0.210
Stream size : 626 MiB (89%)
Writing library : XviD 1.1.0 (UTC 2005-11-22)

Audio
ID : 1
Format : MPEG Audio
Format version : Version 1
Format profile : Layer 3
Mode : Joint stereo
Mode extension : MS Stereo
Codec ID : 55
Codec ID/Hint : MP3
Duration : 1h 13mn
Bit rate mode : Constant
Bit rate : 128 Kbps
Channel(s) : 2 channels
Sampling rate : 48.0 KHz
Stream size : 67.5 MiB (10%)
Alignment : Aligned on interleaves
Interleave, duration : 33 ms (1.00 video frame)
Interleave, preload duration : 504 ms
Writing library : LAME3.97b
Encoding settings : -m j -V 4 -q 2 -lowpass 17 -b 128

Thanks to marstanman for this VHSRip from an old TV broadcast.

Download links:
Code:

http://www.mediafire.com/?poowb8er58onh2m
http://www.mediafire.com/?lqygk65ctgp9g5e
http://www.mediafire.com/?vrufz41v78z762l
http://www.mediafire.com/?h8so91boseh77ti

0 comments:

Post a Comment

Disclaimer

foreignmoviesddl.org does not host any of the files mentioned on this blog or on its own servers. foreignmoviesddl.org only points out to various links on the Internet that already exist and are uploaded by other websites or users there. To clarify more please feel free to contact the webmasters anytime or read more Here.